陳奕迅.-.[英皇鋼琴熱戀系列].專輯.(APE) 下載

陳奕迅.-.[英皇鋼琴熱戀系列].專輯.(APE) 下載
陳奕迅 英皇鋼琴熱戀系列
http://pan.baidu.com/s/1gdhAJR1
PERFORMER "陳奕迅"
TITLE "英皇鋼琴熱戀系列"
FILE "陳奕迅-英皇鋼琴熱戀系列.ape" WAVE
TRACK 01 AUDIO
TITLE "歲月如歌"
PERFORMER "陳奕迅"
INDEX 01 00:00:00
TRACK 02 AUDIO
TITLE "明年今日"
PERFORMER "陳奕迅"
INDEX 01 03:19:65
TRACK 03 AUDIO
TITLE "十面埋伏"
PERFORMER "陳奕迅"
INDEX 01 06:35:25
TRACK 04 AUDIO
TITLE "打回原形"
PERFORMER "陳奕迅"
INDEX 01 09:50:38
TRACK 05 AUDIO
TITLE "K歌之王"
PERFORMER "陳奕迅"
INDEX 01 13:25:61
TRACK 06 AUDIO
TITLE "Shall We Talk"
PERFORMER "陳奕迅"
INDEX 01 17:07:42
TRACK 07 AUDIO
TITLE "給愛麗絲"
PERFORMER "陳奕迅"
INDEX 01 21:03:62
TRACK 08 AUDIO
TITLE "忘記歌詞"
PERFORMER "陳奕迅"
INDEX 01 24:38:05
TRACK 09 AUDIO
TITLE "Lonely Christmas"
PERFORMER "陳奕迅"
INDEX 01 28:10:39
TRACK 10 AUDIO
TITLE "猜情尋"
PERFORMER "陳奕迅"
INDEX 01 32:30:68
TRACK 11 AUDIO
TITLE "幸災樂禍"
PERFORMER "陳奕迅"
INDEX 01 36:25:36
TRACK 12 AUDIO
TITLE "人來人往"
PERFORMER "陳奕迅"
INDEX 01 39:53:19
TRACK 13 AUDIO
TITLE "想哭"
PERFORMER "陳奕迅"
INDEX 01 43:38:57
TRACK 14 AUDIO
TITLE "你的背包"
PERFORMER "陳奕迅"
INDEX 01 47:13:45
TRACK 15 AUDIO
TITLE "天使的禮物"
PERFORMER "陳奕迅"
INDEX 01 50:45:48
TRACK 16 AUDIO
TITLE "打得火熱"
PERFORMER "陳奕迅"
INDEX 01 54:04:52
TRACK 17 AUDIO
TITLE "孤兒仔"
PERFORMER "陳奕迅"
INDEX 01 56:38:29
TRACK 18 AUDIO
TITLE "單車"
PERFORMER "陳奕迅"
INDEX 01 60:01:25
TRACK 19 AUDIO
TITLE "少見不怪"
PERFORMER "陳奕迅"
INDEX 01 63:20:13
TRACK 20 AUDIO
TITLE "他一個人"
PERFORMER "陳奕迅"
INDEX 01 67:06:08
下載地址:(如何下載網盤資源)

點擊下載專輯

更多無損音樂下載點擊:點此打開
注冊網盤(享受更過功能):點擊注冊
24bit音樂和16bit音樂及多音樂編碼格式的解析

解析

原創文章如轉載,請注明本文鏈接: http://www.0313617.live/8017.html

喜歡我們,就分享一下吧!我愛無損音樂網,有你更美好!

猜你喜歡聽
 
信息畅通时代 什么行业赚钱 15选5预测下期号码 11选5万能八码必中一注 福彩6十1中奖对照表 幸运赛车爱彩人彩票网 浙江6+1奖池奖金有多少 股票权重是什么 金融界股票论坛首页 山东11选5专家预测 快乐8官网网址导航 快乐双彩走势图